osu file format v14

[General]
AudioFilename: New Gravity.mp3
AudioLeadIn: 1500
PreviewTime: 41062
Countdown: 0
SampleSet: Normal
StackLeniency: 0.7
Mode: 1
LetterboxInBreaks: 0
WidescreenStoryboard: 0

[Editor]
DistanceSpacing: 0.5
BeatDivisor: 4
GridSize: 32
TimelineZoom: 2.6

[Metadata]
Title:New Gravity
TitleUnicode:New Gravity
Artist:Starving Trancer
ArtistUnicode:Starving Trancer
Creator:Nishizumi
Version:Oni
Source:DanceDanceRevolution (2013)
Tags:ddr jubeat saucer yusuke ceo tasuke912
BeatmapID:700418
BeatmapSetID:313772

[Difficulty]
HPDrainRate:6
CircleSize:5
OverallDifficulty:5
ApproachRate:5
SliderMultiplier:1.4
SliderTickRate:1

[Events]
//Background and Video events
0,0,"1.jpg",0,0
//Break Periods
//Storyboard Layer 0 (Background)
//Storyboard Layer 1 (Fail)
//Storyboard Layer 2 (Pass)
//Storyboard Layer 3 (Foreground)
//Storyboard Sound Samples

[TimingPoints]
543,389.61038961039,4,1,0,77,1,0
55088,-100,4,1,0,82,0,1
67555,-100,4,1,0,77,0,0
81971,-100,4,1,0,82,0,1
94049,-100,4,1,0,70,0,0

[HitObjects]
256,192,543,5,0,0:0:0:0:
256,192,737,1,0,0:0:0:0:
256,192,932,1,0,0:0:0:0:
256,192,1127,1,8,0:0:0:0:
256,192,1517,1,8,0:0:0:0:
256,192,1906,1,0,0:0:0:0:
256,192,2296,1,8,0:0:0:0:
256,192,2685,1,8,0:0:0:0:
256,192,3075,1,0,0:0:0:0:
256,192,3659,1,0,0:0:0:0:
256,192,3854,1,0,0:0:0:0:
256,192,4049,1,0,0:0:0:0:
256,192,4244,1,8,0:0:0:0:
256,192,4633,1,8,0:0:0:0:
256,192,5023,1,0,0:0:0:0:
256,192,5413,1,8,0:0:0:0:
256,192,5802,1,8,0:0:0:0:
256,192,6192,1,8,0:0:0:0:
256,192,6581,1,8,0:0:0:0:
256,192,6776,1,4,0:0:0:0:
256,192,7166,1,8,0:0:0:0:
256,192,7361,1,0,0:0:0:0:
256,192,7750,1,0,0:0:0:0:
256,192,7945,1,8,0:0:0:0:
256,192,8140,1,8,0:0:0:0:
256,192,8335,1,0,0:0:0:0:
256,192,8724,1,8,0:0:0:0:
256,192,8919,1,0,0:0:0:0:
256,192,9309,1,0,0:0:0:0:
256,192,9504,1,8,0:0:0:0:
256,192,9698,1,0,0:0:0:0:
256,192,9893,1,0,0:0:0:0:
256,192,10283,1,8,0:0:0:0:
256,192,10478,1,0,0:0:0:0:
256,192,10867,1,0,0:0:0:0:
256,192,11062,1,8,0:0:0:0:
256,192,11257,1,8,0:0:0:0:
256,192,11452,1,0,0:0:0:0:
256,192,11841,1,8,0:0:0:0:
256,192,12036,1,0,0:0:0:0:
256,192,12426,1,0,0:0:0:0:
256,192,12620,1,8,0:0:0:0:
256,192,12815,1,0,0:0:0:0:
256,192,13010,1,4,0:0:0:0:
256,192,13205,1,0,0:0:0:0:
256,192,13302,1,0,0:0:0:0:
256,192,13400,1,8,0:0:0:0:
256,192,13594,1,0,0:0:0:0:
256,192,13984,1,0,0:0:0:0:
256,192,14179,1,8,0:0:0:0:
256,192,14374,1,8,0:0:0:0:
256,192,14568,1,4,0:0:0:0:
256,192,14763,1,0,0:0:0:0:
256,192,14861,1,0,0:0:0:0:
256,192,14958,1,8,0:0:0:0:
256,192,15153,1,0,0:0:0:0:
256,192,15348,1,4,0:0:0:0:
256,192,15543,1,0,0:0:0:0:
256,192,15640,1,0,0:0:0:0:
256,192,15737,1,8,0:0:0:0:
256,192,15835,1,0,0:0:0:0:
256,192,15932,1,0,0:0:0:0:
256,192,16030,1,8,0:0:0:0:
256,192,16127,1,0,0:0:0:0:
256,192,16322,1,0,0:0:0:0:
256,192,16517,1,0,0:0:0:0:
256,192,16711,1,8,0:0:0:0:
256,192,17101,1,8,0:0:0:0:
256,192,17296,1,8,0:0:0:0:
256,192,17491,1,0,0:0:0:0:
256,192,17685,1,0,0:0:0:0:
256,192,17880,1,8,0:0:0:0:
256,192,18270,1,8,0:0:0:0:
256,192,18659,1,0,0:0:0:0:
256,192,18854,1,8,0:0:0:0:
256,192,19049,1,8,0:0:0:0:
256,192,19146,1,8,0:0:0:0:
256,192,19244,1,0,0:0:0:0:
256,192,19439,1,0,0:0:0:0:
256,192,19633,1,0,0:0:0:0:
256,192,19828,1,8,0:0:0:0:
256,192,20218,1,8,0:0:0:0:
256,192,20413,1,8,0:0:0:0:
256,192,20607,1,0,0:0:0:0:
256,192,20802,1,0,0:0:0:0:
256,192,20997,1,8,0:0:0:0:
256,192,21094,1,0,0:0:0:0:
256,192,21192,1,0,0:0:0:0:
256,192,21387,1,8,0:0:0:0:
256,192,21581,1,0,0:0:0:0:
256,192,21776,1,8,0:0:0:0:
256,192,21874,1,8,0:0:0:0:
256,192,21971,1,0,0:0:0:0:
256,192,22166,1,8,0:0:0:0:
256,192,22361,1,4,0:0:0:0:
256,192,22555,1,0,0:0:0:0:
256,192,22750,1,0,0:0:0:0:
256,192,22945,1,8,0:0:0:0:
256,192,23335,1,8,0:0:0:0:
256,192,23530,1,8,0:0:0:0:
256,192,23724,1,0,0:0:0:0:
256,192,23919,1,0,0:0:0:0:
256,192,24114,1,8,0:0:0:0:
256,192,24211,1,0,0:0:0:0:
256,192,24309,1,0,0:0:0:0:
256,192,24504,1,8,0:0:0:0:
256,192,24698,1,0,0:0:0:0:
256,192,24893,1,0,0:0:0:0:
256,192,24991,1,0,0:0:0:0:
256,192,25088,1,0,0:0:0:0:
256,192,25283,1,8,0:0:0:0:
256,192,25478,1,4,0:0:0:0:
256,192,25867,1,0,0:0:0:0:
256,192,26062,1,8,0:0:0:0:
256,192,26159,1,0,0:0:0:0:
256,192,26257,1,8,0:0:0:0:
256,192,26452,1,0,0:0:0:0:
256,192,26646,1,0,0:0:0:0:
256,192,26841,1,8,0:0:0:0:
256,192,27231,1,8,0:0:0:0:
256,192,27426,1,0,0:0:0:0:
256,192,27620,1,8,0:0:0:0:
256,192,27815,1,0,0:0:0:0:
256,192,28010,1,0,0:0:0:0:
256,192,28107,1,0,0:0:0:0:
256,192,28205,1,8,0:0:0:0:
256,192,28400,1,0,0:0:0:0:
256,192,28594,1,12,0:0:0:0:
256,192,28789,1,0,0:0:0:0:
256,192,28887,1,0,0:0:0:0:
256,192,28984,1,8,0:0:0:0:
256,192,29179,1,0,0:0:0:0:
256,192,29568,1,0,0:0:0:0:
256,192,29763,1,8,0:0:0:0:
256,192,29958,1,8,0:0:0:0:
256,192,30153,1,0,0:0:0:0:
256,192,30348,1,0,0:0:0:0:
256,192,30445,1,0,0:0:0:0:
256,192,30543,1,8,0:0:0:0:
256,192,30737,1,0,0:0:0:0:
256,192,31127,1,0,0:0:0:0:
256,192,31322,1,8,0:0:0:0:
256,192,31517,1,0,0:0:0:0:
256,192,31711,1,0,0:0:0:0:
256,192,31906,1,8,0:0:0:0:
256,192,32004,1,8,0:0:0:0:
256,192,32101,1,0,0:0:0:0:
256,192,32296,1,0,0:0:0:0:
256,192,32685,1,0,0:0:0:0:
256,192,32783,1,0,0:0:0:0:
256,192,32880,1,8,0:0:0:0:
256,192,33075,1,8,0:0:0:0:
256,192,33270,1,0,0:0:0:0:
256,192,33465,1,8,0:0:0:0:
256,192,33659,1,0,0:0:0:0:
256,192,33854,1,8,0:0:0:0:
256,192,34049,1,8,0:0:0:0:
256,192,34244,1,0,0:0:0:0:
256,192,34341,1,0,0:0:0:0:
256,192,34439,1,8,0:0:0:0:
256,192,34633,1,12,0:0:0:0:
256,192,34828,1,4,0:0:0:0:
256,192,35023,1,0,0:0:0:0:
256,192,35120,1,0,0:0:0:0:
256,192,35218,1,8,0:0:0:0:
256,192,35413,1,0,0:0:0:0:
256,192,35802,1,0,0:0:0:0:
256,192,35997,1,8,0:0:0:0:
256,192,36192,1,8,0:0:0:0:
256,192,36387,1,0,0:0:0:0:
256,192,36581,1,0,0:0:0:0:
256,192,36679,1,8,0:0:0:0:
256,192,36776,1,0,0:0:0:0:
256,192,36971,1,0,0:0:0:0:
256,192,37166,1,8,0:0:0:0:
256,192,37361,1,0,0:0:0:0:
256,192,37555,1,8,0:0:0:0:
256,192,37750,1,8,0:0:0:0:
256,192,37945,1,0,0:0:0:0:
256,192,38140,1,8,0:0:0:0:
256,192,38237,1,8,0:0:0:0:
256,192,38335,1,0,0:0:0:0:
256,192,38530,1,0,0:0:0:0:
256,192,38919,1,0,0:0:0:0:
256,192,39114,1,8,0:0:0:0:
256,192,39309,1,8,0:0:0:0:
256,192,39504,1,4,0:0:0:0:
256,192,39698,1,0,0:0:0:0:
256,192,39796,1,0,0:0:0:0:
256,192,39893,1,0,0:0:0:0:
256,192,40088,1,0,0:0:0:0:
256,192,40283,1,12,0:0:0:0:
256,192,40478,1,8,0:0:0:0:
256,192,40575,1,0,0:0:0:0:
256,192,40672,1,0,0:0:0:0:
256,192,40770,1,0,0:0:0:0:
256,192,40867,1,8,0:0:0:0:
256,192,41062,1,12,0:0:0:0:
256,192,41257,1,0,0:0:0:0:
256,192,41452,1,0,0:0:0:0:
256,192,41549,1,0,0:0:0:0:
256,192,41646,1,8,0:0:0:0:
256,192,41744,1,0,0:0:0:0:
256,192,41841,1,0,0:0:0:0:
256,192,42036,1,0,0:0:0:0:
256,192,42231,1,0,0:0:0:0:
256,192,42328,1,0,0:0:0:0:
256,192,42426,1,8,0:0:0:0:
256,192,42523,1,8,0:0:0:0:
256,192,42620,1,0,0:0:0:0:
256,192,42815,1,8,0:0:0:0:
256,192,43010,1,0,0:0:0:0:
256,192,43107,1,0,0:0:0:0:
256,192,43205,1,0,0:0:0:0:
256,192,43302,1,8,0:0:0:0:
256,192,43400,1,0,0:0:0:0:
256,192,43789,1,8,0:0:0:0:
256,192,43984,1,8,0:0:0:0:
256,192,44179,1,0,0:0:0:0:
256,192,44374,1,0,0:0:0:0:
256,192,44568,1,0,0:0:0:0:
256,192,44666,1,0,0:0:0:0:
256,192,44763,1,8,0:0:0:0:
256,192,44861,1,0,0:0:0:0:
256,192,44958,1,0,0:0:0:0:
256,192,45153,1,0,0:0:0:0:
256,192,45348,1,0,0:0:0:0:
256,192,45445,1,0,0:0:0:0:
256,192,45543,1,8,0:0:0:0:
256,192,45640,1,8,0:0:0:0:
256,192,45737,1,0,0:0:0:0:
256,192,45932,1,0,0:0:0:0:
256,192,46127,1,0,0:0:0:0:
256,192,46224,1,0,0:0:0:0:
256,192,46321,1,0,0:0:0:0:
256,192,46419,1,8,0:0:0:0:
256,192,46517,1,0,0:0:0:0:
256,192,46906,1,8,0:0:0:0:
256,192,47101,1,8,0:0:0:0:
256,192,47296,1,4,0:0:0:0:
256,192,47588,1,0,0:0:0:0:
256,192,47880,1,8,0:0:0:0:
256,192,48075,1,0,0:0:0:0:
256,192,48367,1,0,0:0:0:0:
256,192,48659,1,8,0:0:0:0:
256,192,48854,1,8,0:0:0:0:
256,192,49146,1,8,0:0:0:0:
256,192,49439,1,8,0:0:0:0:
256,192,49633,1,0,0:0:0:0:
256,192,50023,1,8,0:0:0:0:
256,192,50218,1,8,0:0:0:0:
256,192,50413,1,4,0:0:0:0:
256,192,50607,1,4,0:0:0:0:
256,192,50802,1,4,0:0:0:0:
256,192,50997,1,4,0:0:0:0:
256,192,51192,1,4,0:0:0:0:
256,192,51387,1,4,0:0:0:0:
256,192,51581,1,4,0:0:0:0:
256,192,51776,1,4,0:0:0:0:
256,192,51971,1,0,0:0:0:0:
256,192,52068,1,0,0:0:0:0:
256,192,52166,1,8,0:0:0:0:
256,192,52263,1,8,0:0:0:0:
256,192,52361,1,0,0:0:0:0:
256,192,52555,1,8,0:0:0:0:
256,192,52750,1,8,0:0:0:0:
256,192,52848,1,0,0:0:0:0:
256,192,52945,1,0,0:0:0:0:
256,192,53042,1,8,0:0:0:0:
256,192,53140,1,0,0:0:0:0:
256,192,53335,1,0,0:0:0:0:
256,192,53529,1,8,0:0:0:0:
256,192,53919,1,8,0:0:0:0:
256,192,54114,1,0,0:0:0:0:
256,192,54309,1,0,0:0:0:0:
256,192,54406,1,0,0:0:0:0:
256,192,54504,1,0,0:0:0:0:
256,192,54601,1,0,0:0:0:0:
256,192,54698,1,8,0:0:0:0:
256,192,55088,1,4,0:0:0:0:
256,192,55283,1,0,0:0:0:0:
256,192,55380,1,0,0:0:0:0:
256,192,55478,1,0,0:0:0:0:
256,192,55672,1,8,0:0:0:0:
256,192,56062,1,8,0:0:0:0:
256,192,56257,1,8,0:0:0:0:
256,192,56452,1,0,0:0:0:0:
256,192,56841,1,8,0:0:0:0:
256,192,57036,1,0,0:0:0:0:
256,192,57231,1,8,0:0:0:0:
256,192,57620,1,0,0:0:0:0:
256,192,57815,1,8,0:0:0:0:
256,192,58010,1,8,0:0:0:0:
256,192,58107,1,8,0:0:0:0:
256,192,58205,1,0,0:0:0:0:
256,192,58400,1,0,0:0:0:0:
256,192,58594,1,0,0:0:0:0:
256,192,58789,1,8,0:0:0:0:
256,192,59179,5,8,0:0:0:0:
256,192,59374,1,8,0:0:0:0:
256,192,59568,1,0,0:0:0:0:
256,192,59763,1,0,0:0:0:0:
256,192,59958,1,8,0:0:0:0:
256,192,60055,1,8,0:0:0:0:
256,192,60153,1,0,0:0:0:0:
256,192,60348,1,8,0:0:0:0:
256,192,60543,1,0,0:0:0:0:
256,192,60737,1,0,0:0:0:0:
256,192,60835,1,0,0:0:0:0:
256,192,60932,1,8,0:0:0:0:
256,192,61127,1,8,0:0:0:0:
256,192,61322,1,4,0:0:0:0:
256,192,61517,1,0,0:0:0:0:
256,192,61614,1,0,0:0:0:0:
256,192,61711,1,0,0:0:0:0:
256,192,61906,1,8,0:0:0:0:
256,192,62296,1,8,0:0:0:0:
256,192,62491,1,8,0:0:0:0:
256,192,62685,1,0,0:0:0:0:
256,192,63075,1,8,0:0:0:0:
256,192,63270,1,0,0:0:0:0:
256,192,63465,1,8,0:0:0:0:
256,192,63659,1,0,0:0:0:0:
256,192,63854,1,0,0:0:0:0:
256,192,63952,1,0,0:0:0:0:
256,192,64049,1,8,0:0:0:0:
256,192,64244,1,8,0:0:0:0:
256,192,64439,1,4,0:0:0:0:
256,192,64828,1,0,0:0:0:0:
256,192,65023,1,8,0:0:0:0:
256,192,65120,1,0,0:0:0:0:
256,192,65218,1,8,0:0:0:0:
256,192,65413,1,0,0:0:0:0:
256,192,65607,1,0,0:0:0:0:
256,192,65802,1,8,0:0:0:0:
256,192,65997,1,12,0:0:0:0:
256,192,66192,1,0,0:0:0:0:
256,192,66289,1,8,0:0:0:0:
256,192,66484,1,8,0:0:0:0:
256,192,66581,1,0,0:0:0:0:
256,192,66776,1,8,0:0:0:0:
256,192,66971,1,0,0:0:0:0:
256,192,67068,1,0,0:0:0:0:
256,192,67166,1,8,0:0:0:0:
256,192,67361,1,8,0:0:0:0:
160,192,67555,6,4,L|256:96,4,105,,,0:0:0:0:
256,192,69114,1,8,0:0:0:0:
256,192,69406,1,8,0:0:0:0:
256,192,69698,1,8,0:0:0:0:
256,192,69893,1,0,0:0:0:0:
256,192,70185,1,0,0:0:0:0:
256,192,70478,1,0,0:0:0:0:
256,192,70672,1,8,0:0:0:0:
256,192,70965,1,8,0:0:0:0:
256,192,71257,1,0,0:0:0:0:
256,192,71452,1,8,0:0:0:0:
256,192,71744,1,0,0:0:0:0:
256,192,72036,1,8,0:0:0:0:
256,192,72231,1,0,0:0:0:0:
256,192,72523,1,0,0:0:0:0:
256,192,72815,1,8,0:0:0:0:
256,192,73010,1,0,0:0:0:0:
256,192,73302,1,0,0:0:0:0:
256,192,73594,1,8,0:0:0:0:
256,192,73789,1,8,0:0:0:0:
256,192,74081,1,8,0:0:0:0:
256,192,74374,1,0,0:0:0:0:
256,192,74568,1,8,0:0:0:0:
256,192,74861,1,8,0:0:0:0:
256,192,75153,1,8,0:0:0:0:
256,192,75348,1,12,0:0:0:0:
256,192,75543,1,0,0:0:0:0:
256,192,75640,1,0,0:0:0:0:
256,192,75737,1,8,0:0:0:0:
256,192,75932,1,8,0:0:0:0:
256,192,76127,1,0,0:0:0:0:
256,192,76517,1,0,0:0:0:0:
256,192,76711,1,0,0:0:0:0:
256,192,76906,1,8,0:0:0:0:
256,192,77101,1,0,0:0:0:0:
256,192,77198,1,0,0:0:0:0:
256,192,77296,1,8,0:0:0:0:
256,192,77491,1,8,0:0:0:0:
256,192,77588,1,0,0:0:0:0:
256,192,77685,1,8,0:0:0:0:
256,192,78075,1,8,0:0:0:0:
256,192,78270,1,8,0:0:0:0:
256,192,78465,1,4,0:0:0:0:
256,192,78659,1,4,0:0:0:0:
256,192,78854,1,4,0:0:0:0:
256,192,79049,1,4,0:0:0:0:
256,192,79244,1,4,0:0:0:0:
256,192,79439,1,4,0:0:0:0:
256,192,79633,1,4,0:0:0:0:
256,192,79828,1,4,0:0:0:0:
256,192,80023,1,0,0:0:0:0:
256,192,80120,1,0,0:0:0:0:
256,192,80218,1,8,0:0:0:0:
256,192,80315,1,8,0:0:0:0:
256,192,80413,1,0,0:0:0:0:
256,192,80607,1,8,0:0:0:0:
256,192,80802,1,8,0:0:0:0:
256,192,80900,1,0,0:0:0:0:
256,192,80997,1,0,0:0:0:0:
256,192,81094,1,8,0:0:0:0:
256,192,81192,1,0,0:0:0:0:
256,192,81387,1,8,0:0:0:0:
256,192,81581,1,0,0:0:0:0:
256,192,81971,1,4,0:0:0:0:
256,192,82166,1,8,0:0:0:0:
256,192,82361,1,0,0:0:0:0:
256,192,82555,1,8,0:0:0:0:
256,192,82653,1,8,0:0:0:0:
256,192,82750,1,8,0:0:0:0:
256,192,82945,1,0,0:0:0:0:
256,192,83335,1,8,0:0:0:0:
256,192,83530,1,0,0:0:0:0:
256,192,83724,1,8,0:0:0:0:
256,192,83919,1,8,0:0:0:0:
256,192,84017,1,0,0:0:0:0:
256,192,84114,1,0,0:0:0:0:
256,192,84309,1,8,0:0:0:0:
256,192,84504,1,8,0:0:0:0:
256,192,84698,1,0,0:0:0:0:
256,192,85088,1,0,0:0:0:0:
256,192,85283,1,8,0:0:0:0:
256,192,85478,1,0,0:0:0:0:
256,192,85672,1,8,0:0:0:0:
256,192,85770,1,8,0:0:0:0:
256,192,85867,1,8,0:0:0:0:
256,192,86062,1,0,0:0:0:0:
256,192,86452,1,8,0:0:0:0:
256,192,86646,1,0,0:0:0:0:
256,192,86744,1,0,0:0:0:0:
256,192,86841,1,8,0:0:0:0:
256,192,87036,1,0,0:0:0:0:
256,192,87231,1,8,0:0:0:0:
256,192,87328,1,8,0:0:0:0:
256,192,87426,1,0,0:0:0:0:
256,192,87523,1,0,0:0:0:0:
256,192,87620,1,8,0:0:0:0:
256,192,87815,1,4,0:0:0:0:
256,192,88205,1,0,0:0:0:0:
256,192,88400,1,8,0:0:0:0:
256,192,88594,1,0,0:0:0:0:
256,192,88789,1,8,0:0:0:0:
256,192,88887,1,0,0:0:0:0:
256,192,88984,1,0,0:0:0:0:
256,192,89179,1,8,0:0:0:0:
256,192,89568,1,8,0:0:0:0:
256,192,89763,1,0,0:0:0:0:
256,192,89958,1,8,0:0:0:0:
256,192,90153,1,0,0:0:0:0:
256,192,90348,1,8,0:0:0:0:
256,192,90543,1,0,0:0:0:0:
256,192,90737,1,0,0:0:0:0:
256,192,90835,1,8,0:0:0:0:
256,192,90932,1,8,0:0:0:0:
256,192,91322,1,0,0:0:0:0:
256,192,91517,1,8,0:0:0:0:
256,192,91614,1,8,0:0:0:0:
256,192,91711,1,0,0:0:0:0:
256,192,91906,1,0,0:0:0:0:
256,192,92101,1,8,0:0:0:0:
256,192,92296,1,0,0:0:0:0:
256,192,92491,1,0,0:0:0:0:
256,192,92588,1,0,0:0:0:0:
256,192,92685,1,8,0:0:0:0:
256,192,92783,1,0,0:0:0:0:
256,192,92880,1,8,0:0:0:0:
256,192,93075,1,0,0:0:0:0:
256,192,93270,1,8,0:0:0:0:
256,192,93367,1,0,0:0:0:0:
256,192,93465,1,0,0:0:0:0:
256,192,93562,1,8,0:0:0:0:
256,192,93659,1,0,0:0:0:0:
256,192,93854,1,8,0:0:0:0:
256,192,94049,1,4,0:0:0:0:
256,192,94439,1,0,0:0:0:0:
256,192,94633,1,8,0:0:0:0:
256,192,95023,1,8,0:0:0:0:
256,192,95413,1,0,0:0:0:0:
256,192,95802,1,8,0:0:0:0:
256,192,96192,1,8,0:0:0:0:
256,192,96581,1,0,0:0:0:0:
256,192,96776,1,0,0:0:0:0:
256,192,96971,1,8,0:0:0:0:
256,192,97166,1,0,0:0:0:0:
256,192,97750,1,8,0:0:0:0:
256,192,97848,1,0,0:0:0:0:
256,192,97945,1,8,0:0:0:0:
256,192,98530,1,8,0:0:0:0:
256,192,98919,1,8,0:0:0:0:
256,192,99309,1,8,0:0:0:0:
256,192,99504,1,0,0:0:0:0:
256,192,99698,1,0,0:0:0:0:
256,192,99893,1,8,0:0:0:0:
256,192,100088,1,8,0:0:0:0:
256,192,100283,1,0,0:0:0:0:
